GUIDA AL SEGA SATURN (CASSINI EMU)

Tutti gli emulatori che ci possono servire sul nostro cab con SO Windows
Avatar utente
khadia
God of Arcade
God of Arcade
Messaggi: 2449
Iscritto il: 04/10/2007, 20:21
Medaglie: 5
Reputation: 44
Città: brescia
Località: brescia
:
Gold Medal Silver Medal

Re: GUIDA AL SEGA SATURN (CASSINI EMU)

Messaggio da khadia » 22/02/2012, 11:37

me lo dava pure a me quell'errore cancella tutto e ri estrai l'emulatore in una cartella
THREE WONDERS chariot : 470.300 - BUBBLE BOBBLE: 2.753.560 - STRIKERS 1945 : 441.000
COSMO GANG THE VIDEO : 2.209.750

NUMERATO DALL' FBI
mattia.m78 ha scritto:who is "babbo" ?!?!
<-gamer->


Avatar utente
Arnold101
Nostalgico
Nostalgico
Messaggi: 363
Iscritto il: 05/04/2010, 22:57
Reputation: 1
Città: fghgfhgfhgh

Re: GUIDA AL SEGA SATURN (CASSINI EMU)

Messaggio da Arnold101 » 22/02/2012, 12:31

ho scoperto che era il file msvcp100.dll a dare il problema anche se l'errore lo segnala sul file msvcr100.dll

come si mette il fullscreen manuale nella nuova versione? alt invio non funziona piu <_<

sta schifezza tanta fatica per farlo andare e gira molto piu lento della precedente versione!


Avatar utente
khadia
God of Arcade
God of Arcade
Messaggi: 2449
Iscritto il: 04/10/2007, 20:21
Medaglie: 5
Reputation: 44
Città: brescia
Località: brescia
:
Gold Medal Silver Medal

Re: GUIDA AL SEGA SATURN (CASSINI EMU)

Messaggio da khadia » 22/02/2012, 14:48

io ho optato per il cassini perche' tra i tre : yabuse ,ssf e cassini sul mio pc va meglio
THREE WONDERS chariot : 470.300 - BUBBLE BOBBLE: 2.753.560 - STRIKERS 1945 : 441.000
COSMO GANG THE VIDEO : 2.209.750

NUMERATO DALL' FBI
mattia.m78 ha scritto:who is "babbo" ?!?!
<-gamer->


Avatar utente
Arnold101
Nostalgico
Nostalgico
Messaggi: 363
Iscritto il: 05/04/2010, 22:57
Reputation: 1
Città: fghgfhgfhgh

Re: GUIDA AL SEGA SATURN (CASSINI EMU)

Messaggio da Arnold101 » 22/02/2012, 17:55

era l'opzione frameskyp a far scattare il bios, cosa che con la 10 non fa.
proverò il cassini..
Ultima modifica di Arnold101 il 23/02/2012, 12:54, modificato 1 volta in totale.


Avatar utente
Arnold101
Nostalgico
Nostalgico
Messaggi: 363
Iscritto il: 05/04/2010, 22:57
Reputation: 1
Città: fghgfhgfhgh

Re: GUIDA AL SEGA SATURN (CASSINI EMU)

Messaggio da Arnold101 » 22/02/2012, 23:29

dato che i giochi saturn li ho su cd e volevo caricarli con l'emu (con yabause vanno) con cassini clicco run cd rom ma non succede niente o_o il bios l'ho messo..

poi ho provato a crearmi l'iso dal cd con magiciso, selezionato bin/cue, avvio la iso con yabause e carica bene (come anche il vero il cd dal drive), con cassini nulla anche qui :( ne iso ne cd..come faccio?


Avatar utente
khadia
God of Arcade
God of Arcade
Messaggi: 2449
Iscritto il: 04/10/2007, 20:21
Medaglie: 5
Reputation: 44
Città: brescia
Località: brescia
:
Gold Medal Silver Medal

Re: GUIDA AL SEGA SATURN (CASSINI EMU)

Messaggio da khadia » 24/02/2012, 20:09

apri il file CUE del gioco e controlla che ci sia il nome esatto del gioco.bin
THREE WONDERS chariot : 470.300 - BUBBLE BOBBLE: 2.753.560 - STRIKERS 1945 : 441.000
COSMO GANG THE VIDEO : 2.209.750

NUMERATO DALL' FBI
mattia.m78 ha scritto:who is "babbo" ?!?!
<-gamer->


Avatar utente
Arnold101
Nostalgico
Nostalgico
Messaggi: 363
Iscritto il: 05/04/2010, 22:57
Reputation: 1
Città: fghgfhgfhgh

Re: GUIDA AL SEGA SATURN (CASSINI EMU)

Messaggio da Arnold101 » 24/02/2012, 20:36

si ha lo stesso nome del bin


FILE "Shinobi Legions.BIN" BINARY
REM SESSION 01
TRACK 01 MODE1/2352
INDEX 01 00:00:00
TRACK 02 AUDIO
INDEX 01 41:51:34
TRACK 03 AUDIO
INDEX 01 42:28:41


mi da errore wrong cue format 3..boh. stesso cue bin funziona su yabause


Avatar utente
khadia
God of Arcade
God of Arcade
Messaggi: 2449
Iscritto il: 04/10/2007, 20:21
Medaglie: 5
Reputation: 44
Città: brescia
Località: brescia
:
Gold Medal Silver Medal

Re: GUIDA AL SEGA SATURN (CASSINI EMU)

Messaggio da khadia » 24/02/2012, 20:41

capitato pure a me ho risolto montando l'imagine su un cdrom virtuale con daemontools e con ULTRA ISO riestraendola in formato cue\bin
THREE WONDERS chariot : 470.300 - BUBBLE BOBBLE: 2.753.560 - STRIKERS 1945 : 441.000
COSMO GANG THE VIDEO : 2.209.750

NUMERATO DALL' FBI
mattia.m78 ha scritto:who is "babbo" ?!?!
<-gamer->


Avatar utente
Arnold101
Nostalgico
Nostalgico
Messaggi: 363
Iscritto il: 05/04/2010, 22:57
Reputation: 1
Città: fghgfhgfhgh

Re: GUIDA AL SEGA SATURN (CASSINI EMU)

Messaggio da Arnold101 » 24/02/2012, 21:10

sei un grande :) allora era un problema di software di masterizzazione! grazie


Avatar utente
khadia
God of Arcade
God of Arcade
Messaggi: 2449
Iscritto il: 04/10/2007, 20:21
Medaglie: 5
Reputation: 44
Città: brescia
Località: brescia
:
Gold Medal Silver Medal

Re: GUIDA AL SEGA SATURN (CASSINI EMU)

Messaggio da khadia » 24/02/2012, 21:28

Arnold101 ha scritto:sei un grande :) allora era un problema di software di masterizzazione! grazie
me ne sono accorta scarivcando il pack di iso del saturn il cassini mi dava quell'errore ma la cosa mi era gia capitata com l'emu della PSX l'EPSXE
THREE WONDERS chariot : 470.300 - BUBBLE BOBBLE: 2.753.560 - STRIKERS 1945 : 441.000
COSMO GANG THE VIDEO : 2.209.750

NUMERATO DALL' FBI
mattia.m78 ha scritto:who is "babbo" ?!?!
<-gamer->


Rispondi

Chi c’è in linea

Visitano il forum: Nessuno e 1 ospite